Rajma Chawal Full Movie Download In Hindi 720p HD WEBRip Quality Encoded In x264 MKV With English Subtitles.

Rajma Chawal Full Movie Download In Hindi 720p HD With English Subtitles

Details Of Full Length Free Videos

Title: Rajma Chawal 2018
Genres: Comedy | Drama | Family
Country: India
Language: Hindi
Release Date: 30 November 2018
Quality: 720p WEBRip x264
Subtitles: English
Format: MKV
Size: 745-MB

IMDb

Storyline

Rajma Chawal Full Movie Download An internet-rookie father attempts to use social media to enhance his faltering relationship with his millennial son.

Rajma Chawal 720p Download is a Hindi film directed by Leena Yadav, produced by Gulab Singh Tanwar and Aseem Bajaj, which stars Rishi Kapoor, Anirudh Tanwar and Amyra Dastur in the lead. The film revolves around a father-son relationship in today’s time.

Rajma Chawal Full Movie Cast

  • Rishi Kapoor as Raj Mathur
  • Anirudh Tanwar as Kabir Mathur
  • Amyra Dastur as Seher / Tara
  • Nirmal Rishi as Beeji / Bebe
  • Aparshakti Khurana as Baljeet Singh Chautala
  • Harish Khanna as Kuljeet
  • Manurishi Chadha Baljeet as Mittal
  • Jitendra Shastri as Anees
  • Diksha Juneja as Paro
  • Akash Dabas as Sanju
  • Raja Hasan as Jacky Jam
  • Mukesh Chhabra as Anoop Ji

MKV File Details

MKV File Details

Video
ID : 1
Format : AVC
Format/Info : Advanced Video Codec
Format profile : [email protected]
Format settings : CABAC / 5 Ref Frames
Format settings, CABAC : Yes
Format settings, RefFrames : 5 frames
Codec ID : V_MPEG4/ISO/AVC
Duration : 1 h 58 min
Bit rate : 750 kb/s
Width : 1 280 pixels
Height : 720 pixels
Display aspect ratio : 2.40:1
Frame rate mode : Constant
Frame rate : 24.000 FPS
Color space : YUV
Chroma subsampling : 4:2:0
Bit depth : 8 bits
Scan type : Progressive
Bits/(Pixel*Frame) : 0.034
Stream size : 637 MiB (85%)
Writing library : x264 core 155 r2901 7d0ff22
Default : Yes
Forced : No Rajma Chawal Full Hindi Movie Download With English Subtitles
Color range : Limited
Color primaries : BT.709
Transfer characteristics : BT.709
Matrix coefficients : BT.709

Audio
ID : 2
Format : AAC
Format/Info : Advanced Audio Codec
Format profile : LC
Codec ID : A_AAC-2
Duration : 1 h 58 min Rajma Chawal Movie English Subtitles Download
Bit rate : 126 kb/s
Channel(s) : 6 channels
Channel positions : Front: L C R, Side: L R, LFE
Sampling rate : 48.0 kHz
Frame rate : 46.875 FPS (1024 SPF)
Compression mode : Lossy
Delay relative to video : -12 ms
Stream size : 107 MiB (14%)
Language : Hindi
Default : Yes
Forced : No

Text
ID : 3
Format : UTF-8
Codec ID : S_TEXT/UTF8
Codec ID/Info : UTF-8 Plain Text
Duration : 1 h 52 min
Bit rate : 54 b/s
Count of elements : 1579
Stream size : 45.1 KiB (0%)
Language : English
Default : Yes
Forced : No

Images, Screenshots Of Full Episodes

Some Images Of Rajma Chawal 2018 Hindi Movie 720p WEBRip x264 ESubs

Rajma Chawal Full Movie Download In Hindi 720p HD With English Subtitles

Rajma Chawal Full Movie Download In Hindi 720p HD With English Subtitles

Rajma Chawal Full Movie Download In Hindi 720p HD With English Subtitles

Rajma Chawal Full Movie Download In Hindi 720p HD With English Subtitles

Rajma Chawal Full Movie Download In Hindi 720p HD With English Subtitles

Rajma Chawal Full Movie Download In Hindi 720p HD With English Subtitles

Rajma Chawal Full Movie Download In Hindi 720p HD With English Subtitles

Watch The Full HD 720p, 1080p Movie Trailers

Watch Rajma Chawal 2018 Netflix Movie Trailer

Direct Download Links Of Rajma Chawal Full Movie In Hindi 720p HD Given Below

Free Download Direct Links HD

Direct Links For Premium Users

If you are the member of this site then enter your login details and Enjoy Direct Links

Leave a Reply

Your email address will not be published. Required fields are marked *

Check Also

Stories by Rabindranath Tagore Season 1 In Hindi – Complete

Stories by Rabindranath Tagore All Episodes Free Download In Hindi 720p HDRip Quality Enco…